Статистика раздачи | Обновить пиров
Размер:  498 MB   |    Зарегистрирован:  1 год 4 месяца   |    Скачан:  2 раза
DL-List: Нет

Полного источника не было: 10 месяцев 2 дня



No More Pain - The Post Human Condition (2014)- Лейбл: NMP Management Group, LLC
Страна: USA
Год: 2014
Жанр: Progressive Rock
Продолжительность: 01:17:50
Кодек: FLAC
Битрейт: Lossless
Тип рипа: image+.cue
01. Nascency 04:09
02. All As One 04:44
03. Behold The Screen 06:03
04. The Spiral 05:05
05. Shrine Of Pearl 05:39
06. God In The Glass 05:04
07. Bleed 10:25
08. Binary Annihilation Glitch 04:47
09. Mountains Of The Sky 10:12
10. Cosmic Trigger 04:11
11. The Network 17:27
i. World Wide Webb
ii. A Watchful Eye
iii. Quanta
iv. Sphere Of Influence
v. Useful Oblivion
vi. Heads Down


Mike Roman - Vocals and Guitar
Matt McDermott - Keyboards
John Moroney - Bass
Dan Rainone - Drums

Об исполнителе:

The Post-Human Condition, the second release from the group No More Pain, is pretty intent on letting you know you’ll have to be more engaged than you ordinarily would. The cover of the release shows an omniscient computer monitor in the shy with a demonic eye surveying humans tumbling out of it, slowly evolving into sheep as they fall. The narrative, while not performed in broad, rock-opera strokes, does relate to the last “untethered” man who awakes in a world overrun by technology. You probably couldn’t get more album-oriented than that in the digital age. (Bonus points for irony because you’re reading this review on your cellphone or computer.)
The band No More Pain has a long reach into the past as far as its influences are concerned. At one moment you might catch some Gabriel-era keyboard flourishes, or a Floyd groove, or a Kansas vibe, but then things swing into a heavy, Dream Theater sort of form. These touchstones never linger for too long, and never get in the way of the music, even as it extols its virtues. More importantly, even though there are longer songs to be found on the disc, there’s apparent compositional control taking place as well. In English: the songs are long when they need to be, and not because that’s what the genre demands.
That said, the CD concludes with the multi-part “The Network.” I’m hesitant to describe it as an “epic,” which has lately become dirty code for “just a really long pastiche of songs with no real reason for being so long.” In fact, each section of The Post-Human Condition has a sense of purpose, and things aren’t being tossed in merely to make things longer. The listener feels that there’s a reason for it all to be there.
And that reason is, in part, a high level of musicianship. If potential listeners are turned off by that, and are more inclined for straight riff-rock styled music, this is not the CD for them. The band has seen a few internal changes since the recording of the CD, but the captured collaboration of Mike Roman (vocals, guitar), Matt McDermott (keyboards), John Moroney (bass), and Dan Rainone (drums) sounds far more accomplished than two CDs would presume to say. Even in the heavier portions, the songs never stop being melodic, even hooky.
We rarely review progressive rock albums here. This is mostly because most “prog-rock” nowadays obviously don’t know that “prog” is short for “progressive” and that “progressive” means “favouring or promoting progress”. Well, No More Pain is no different. The Post Human Conditionis a great, albeit standard, prog rock album; it sticks to the prog rockformula.
Heavily influenced by Spock’s Beard, apparently, themselves heavily influenced by the likes of Gentle Giant, ELP, King Crimson, and Pink Floyd, NMP dwell in 60s and 70s progressive rock, with a modern edge to it. There’s nothing new that’s brought to the table here, nothing that’s a game changer, and they probably won’t be very influential. That being said, The Post Human Condition is a great album for fans of the genre, and for those who actually like the standard prog rock formula.
While they use pretty much all common tropes of the genre and stick to the paradigm, it never (well, almost) sounds cliche or overtly retrograde. The guitar is masterfully done as well as the piano, and they can both almost draw tears from the listener’s eyes at times, while remaining “crazy” enough to create a feel of circus music that appears but a few times throughout the whole album. And that “circus music” feel is what made Haken sound so amazing at first (now they’ve totally lost it).
The Post Human Condition is varied enough, playing through quite a lot of prog rock styles, and it’s wonderfully crafted and perfectly played, making it, honestly, one of the best prog rock albums of recent times, easily comparable to the aforementioned Spock’s Beard. It’s a must for any prog rock fan.

Отчёт ЕАС:

Exact Audio Copy V1.0 beta 3 from 29. August 2011
EAC extraction logfile from 28. March 2015, 20:34
No More Pain / The Post Human Condition
Used drive  : Optiarc DVD RW AD-5170A   Adapter: 0  ID: 0
Read mode               : Secure
Utilize accurate stream : Yes
Defeat audio cache      : Yes
Make use of C2 pointers : No
Read offset correction                      : 48
Overread into Lead-In and Lead-Out          : No
Fill up missing offset samples with silence : Yes
Delete leading and trailing silent blocks   : No
Null samples used in CRC calculations       : Yes
Used interface                              : Native Win32 interface for Win NT & 2000
Used output format              : User Defined Encoder
Selected bitrate                : 1024 kBit/s
Quality                         : High
Add ID3 tag                     : No
Command line compressor         : C:\Program Files\Exact Audio Copy\flac-1.3.1-win\win32\flac.exe
Additional command line options : -8 -V -T "ARTIST=%artist%" -T "TITLE=%title%" -T "ALBUM=%albumtitle%" -T "DATE=%year%" -T "TRACKNUMBER=%tracknr%" -T "GENRE=%genre%" -T "COMMENT=%comment%" %source% -o %dest%
TOC of the extracted CD
     Track |   Start  |  Length  | Start sector | End sector
        1  |  0:00.00 |  4:09.22 |         0    |    18696
        2  |  4:09.22 |  4:44.16 |     18697    |    40012
        3  |  8:53.38 |  6:03.39 |     40013    |    67276
        4  | 14:57.02 |  5:05.42 |     67277    |    90193
        5  | 20:02.44 |  5:39.52 |     90194    |   115670
        6  | 25:42.21 |  5:04.17 |    115671    |   138487
        7  | 30:46.38 | 10:25.30 |    138488    |   185392
        8  | 41:11.68 |  4:47.40 |    185393    |   206957
        9  | 45:59.33 | 10:12.18 |    206958    |   252875
       10  | 56:11.51 |  4:11.17 |    252876    |   271717
       11  | 60:22.68 | 17:27.45 |    271718    |   350287
Range status and errors
Selected range
     Filename C:\Sket4er\No More Pain - The Post Human Condition 2014 flac\No More Pain - The Post Human Condition.wav
     Peak level 100.0 %
     Extraction speed 5.9 X
     Range quality 99.9 %
     Test CRC 05BCAD28
     Copy CRC 05BCAD28
     Copy OK
No errors occurred
AccurateRip summary
Track  1  cannot be verified as accurate (confidence 1)  [A5BAEA48], AccurateRip returned [8FE551E1]  (AR v2)
Track  2  cannot be verified as accurate (confidence 1)  [CAFFF9F1], AccurateRip returned [D2508E1C]  (AR v2)
Track  3  cannot be verified as accurate (confidence 1)  [ADFEDC40], AccurateRip returned [1859FD56]  (AR v2)
Track  4  cannot be verified as accurate (confidence 1)  [C80CEDB6], AccurateRip returned [7858B4FB]  (AR v2)
Track  5  cannot be verified as accurate (confidence 1)  [621D2163], AccurateRip returned [952E1C07]  (AR v2)
Track  6  cannot be verified as accurate (confidence 1)  [0E62BE4F], AccurateRip returned [D5F10B07]  (AR v2)
Track  7  cannot be verified as accurate (confidence 1)  [0B184ED8], AccurateRip returned [F59EC575]  (AR v2)
Track  8  cannot be verified as accurate (confidence 1)  [97DBA595], AccurateRip returned [DDD7A4A6]  (AR v2)
Track  9  cannot be verified as accurate (confidence 1)  [3C2427EC], AccurateRip returned [FE25C68D]  (AR v2)
Track 10  cannot be verified as accurate (confidence 1)  [76BABB1D], AccurateRip returned [ED198702]  (AR v2)
Track 11  cannot be verified as accurate (confidence 1)  [E6448006], AccurateRip returned [54B6E405]  (AR v2)
No tracks could be verified as accurate
You may have a different pressing from the one(s) in the database
End of status report
==== Log checksum 604713BC941F8DCCA05A964FDBF9285937AF6FFEC53E039BD75166CC33019D78 ====

Отчёт auCDtect Task manager:

PERFORMER: auCDtect Task Manager, ver. 1.5.1RC4 build
Copyright (c) 2008-2010 y-soft. All rights reserved
ANALYZER: auCDtect: CD records authenticity detector, version 0.8.2
Copyright (c) 2004 Oleg Berngardt. All rights reserved.
Copyright (c) 2004 Alexander Djourik. All rights reserved.
FILE: No More Pain - The Post Human Condition.flac
  Size: 516864492 Hash: 916EF4EEA4F1E3AF6500C58431099E19 Accuracy: -m0
  Conclusion: CDDA 100%
  Signature: 38B64A35D8C9DB6AA7157FA2C188EE789FD6142C

Содержание индексной карты (.CUE)

REM GENRE "Progressive Rock"
REM COMMENT "ExactAudioCopy v1.0b3"
PERFORMER "No More Pain"
TITLE "The Post Human Condition"
FILE "No More Pain - The Post Human Condition.flac" WAVE
    TITLE "Nascency"
    PERFORMER "No More Pain"
    INDEX 01 00:00:00
    TITLE "All As One"
    PERFORMER "No More Pain"
    INDEX 01 04:09:22
    TITLE "Behold The Screen"
    PERFORMER "No More Pain"
    INDEX 01 08:53:38
    TITLE "The Spiral"
    PERFORMER "No More Pain"
    INDEX 01 14:57:02
    TITLE "Shrine Of Pearl"
    PERFORMER "No More Pain"
    INDEX 01 20:02:44
    TITLE "God In The Glass"
    PERFORMER "No More Pain"
    INDEX 01 25:42:21
    TITLE "Bleed"
    PERFORMER "No More Pain"
    INDEX 01 30:46:38
    TITLE "Binary Annihilation Glitch"
    PERFORMER "No More Pain"
    INDEX 01 41:11:68
    TITLE "Mountains Ff The Sky"
    PERFORMER "No More Pain"
    INDEX 01 45:59:33
    TITLE "Cosmic Trigger"
    PERFORMER "No More Pain"
    INDEX 01 56:11:51
    TITLE "The Network"
    PERFORMER "No More Pain"
    INDEX 01 60:22:68


https://www.youtube.com/watch?v=Wda2w8bIZi8 https://www.youtube.com/watch?v=cCJUmzHqay8Не жилим спасибо. Не забываем голосовать за трекер!!!
Торрент: Зарегистрирован   [ 2015-06-04 13:24 ] · F3DECF93261F1FDB910862FD85507B85F7B74596

Скачать .torrent


Смотреть онлайн

21 KB

Статус: проверено
Скачан: 2 раз
Размер: 498 MB
Оценка:  - (Голосов: 0) СуперХорошоСреднеТак себеОтстой
Поблагодарили: 0  Спасибо

Показать сообщения:    

Текущее время: 23-Окт 21:10

Часовой пояс: UTC + 3

Вы не можете начинать темы
Вы не можете отвечать на сообщения
Вы не можете редактировать свои сообщения
Вы не можете удалять свои сообщения
Вы не можете голосовать в опросах
Вы не можете прикреплять файлы к сообщениям
Вы можете скачивать файлы

Сайт не предоставляет электронные версии произведений, а занимается лишь коллекционированием и каталогизацией ссылок, присылаемых и публикуемых на форуме нашими читателями. Если вы являетесь правообладателем какого-либо представленного материала и не желаете, чтобы ссылка на него находилась в нашем каталоге, свяжитесь с нами, и мы незамедлительно удалим ее. Файлы для обмена на трекере предоставлены пользователями сайта, и администрация не несет ответственности за их содержание. Просьба не заливать файлы, защищенные авторскими правами, а также файлы нелегального содержания!