Статистика раздачи | Обновить пиров
Размер:  10,98 GB   |    Зарегистрирован:  1 год 8 месяцев   |    Скачан:  2 раза
DL-List: Нет

Полного источника не было: 1 год 7 месяцев



Warren Eagles | FF201 Advanced Resolve 11 (2014) PCRec [EN]- Автор (режиссер): Warren Eagles
Производство: FXPHD
Жанр: DaVinci Resolve, цветокоррекция.
Язык: Английский
Продолжительность: 05:45:19
Качество видео: PCRec
Видеокодек: H264
Битрейт видео: ~1 283 kb/s
Размер кадра: 1280x720
Аудиокодек: AAC
Битрейт аудио: 99.9 kb/s (CBR), 2 Ch, 44100 Hz
Это новый расширенный курс обучения Resolve от Уоррена Eagles, идеальный для существующих пользователей Resolve, которые ищут больше знаний, как в программном обеспечении, так и в искусстве цветокоррекции. Курс содержит более пяти часов обучения, охватывающих дополнительные методы использования DaVinci Resolve v11.

Дополнительная информация:

Class 1: Resolve, what’s it all about?
“Sit back and relax, you don’t have to do anything in this lesson.” Learn about Warren as he walks you through Resolve v11, examining some of the exciting new features while talking about his career in the industry.
Class 2: Editing and Conform.
Editing with a Color corrector! In this class we outline Resolve’s powerful editing features. You might not want to edit, but adding, replacing, trimming and slipping are all important tools for the Colorist.
Class 3: Primary correction.
I have said it before and I’ll say it again The Primary controls are the most important controls you will use. This lesson showcases the difference between grading in LOG and Lift Gamma Gain. Before you master anything else you need to be able to do strong primary grading.
Class 4: Secondaries and Nodes.
Understanding which control to adjust rather than just moving them all is the key to successful secondary keying. For example, learn when to key and when to use a curve. It will make your work more consistent and your grades more effective.
Class 5: Windows Tracking And Keyframing.
Learn how to fix broken tracks and how to animate and track at the same time. Many people hate drawing shapes I’ll show you how to effectively use an external matte instead.
Class 6: Grading Raw.
One of the great advances in digital cinematography has been the ability to work with RAW files, and Resolve does this extremely well. In this class we explore how adjust a RAW file and when in your pipeline. We’ll see which cameras shoot RAW and what are the advantages within Resolve of implementing a RAW workflow. We look at a variety of popular camera formats, including R3D and Blackmagic Cinema DNG
Class 7: Looks With Clients.
Most people will be working as part of a collaborative team, that means grading for a director or a client in this class I look how to make ‘looks’ and, how many looks do we offer the clients?
Class 8: Problems And How To Fix Them.
In a perfect world the footage is shot without any issues and the DOP is completely able to achieve the look they want on set. Unfortunately very few of us live in that world. In the real world you don’t always get fantastic footage to work with. This class shows you how to handle problem material.
Class 9: Workflow.
A colorist can sometimes spend as much time prepping a project as grading it so here are a few tips to speed your up your workflow. Given the nature of large projects even small savings in time can make a huge difference over the life of your project, freeing up more time to be creative and reducing the stress than can come from a poorly organized and run session.
Class 10: Control Surfaces.
While Resolve can work just from the UI on screen, most serious colorist soon want to be able to use a control surface and operate with both hands while focusing on the creative. Here are my thoughts on the Resolve panel options. I also explore how you can do remote grading with Resolve 11.


Class 1: Resolve, what’s it all about?
Class 2: Editing and Conform
Class 3: Primary correction
Class 4: Secondaries and Nodes
Class 5: Windows Tracking And Keyframing
Class 6: Grading Raw
:Class 7: Looks With Clients
Class 8: Problems And How To Fix Them
Class 9: Workflow
Class 10: Control Surfaces


Complete name: D:\1\FXPHD FF201 Advanced Resolve 11\Class 1\fxphd Advanced Resolve v11 Class 1.mp4
Format: MPEG-4
Format profile: Base Media / Version 2
Codec ID: mp42
File size: 321 MiB
Duration: 32mn 18s
Overall bit rate mode: Variable
Overall bit rate: 1 387 Kbps
Encoded date: UTC 2014-09-10 06:44:53
Tagged date: UTC 2014-09-10 06:53:32
Writing application: HandBrake 0.9.9 2013051800
ID: 1
Format: AVC
Format/Info: Advanced Video Codec
Format profile: [email protected]Format settings, CABAC: Yes
Format settings, ReFrames: 4 frames
Codec ID: avc1
Codec ID/Info: Advanced Video Coding
Duration: 32mn 18s
Bit rate: 1 283 Kbps
Width: 1 280 pixels
Height: 720 pixels
Display aspect ratio: 16:9
Frame rate mode: Variable
Frame rate: 23.976 fps
Minimum frame rate: 23.974 fps
Maximum frame rate: 23.981 fps
Color space: YUV
Chroma subsampling: 4:2:0
Bit depth: 8 bits
Scan type: Progressive
Bits/(Pixel*Frame): 0.058
Stream size: 296 MiB (92%)
Writing library: x264 core 130 r2273 b3065e6
Encoding settings: cabac=1 / ref=3 / deblock=1:0:0 / analyse=0x1:0x111 / me=hex / subme=7 / psy=1 /
Encoded date: UTC 2014-09-10 06:44:53
Tagged date: UTC 2014-09-10 06:53:32
Color primaries: BT.709
Transfer characteristics: BT.709
Matrix coefficients: BT.709
ID: 2
Format: AAC
Format/Info: Advanced Audio Codec
Format profile: LC
Codec ID: 40
Duration: 32mn 18s
Bit rate mode: Variable
Bit rate: 99.9 Kbps
Maximum bit rate: 156 Kbps
Channel(s): 1 channel
Channel positions: Front: C
Sampling rate: 44.1 KHz
Compression mode: Lossy
Stream size: 23.1 MiB (7%)
Language: English
Encoded date: UTC 2014-09-10 06:44:53
Tagged date: UTC 2014-09-10 06:53:32

Дополнительные скриншоты:

Время раздачи: 24/7 (круглосуточно)
Торрент: Зарегистрирован   [ 2015-02-23 13:09 ] · A82165D89E26C39EC65D0B38BB8E33B973CF6E3F

Скачать .torrent


44 KB

Статус: проверено
Скачан: 2 раз
Размер: 10,98 GB
Оценка:  - (Голосов: 0) СуперХорошоСреднеТак себеОтстой
Поблагодарили: 1  Спасибо   (список)

Показать сообщения:    

Текущее время: 28-Окт 05:38

Часовой пояс: UTC + 3

Вы не можете начинать темы
Вы не можете отвечать на сообщения
Вы не можете редактировать свои сообщения
Вы не можете удалять свои сообщения
Вы не можете голосовать в опросах
Вы не можете прикреплять файлы к сообщениям
Вы можете скачивать файлы

Сайт не предоставляет электронные версии произведений, а занимается лишь коллекционированием и каталогизацией ссылок, присылаемых и публикуемых на форуме нашими читателями. Если вы являетесь правообладателем какого-либо представленного материала и не желаете, чтобы ссылка на него находилась в нашем каталоге, свяжитесь с нами, и мы незамедлительно удалим ее. Файлы для обмена на трекере предоставлены пользователями сайта, и администрация не несет ответственности за их содержание. Просьба не заливать файлы, защищенные авторскими правами, а также файлы нелегального содержания!